Hello
  Home Help Login Register DMCA Rules  
23 January 2018, 00:54:15
 

Skoci na stranu:  1 2 3 4 5 6 7 ... 49   Idi na dno strane
Send this topic    Print
Author Topic: Filmovi Sa Uskladjenim Prevodom  (Read 29390 times)
« Reply #15 on: 25 August 2012, 11:19:47 »

Machete (2010) DvDrip-aXXo + Uskladjen Prevod



Code:
http://www.imdb.com/title/tt0985694/

Quote
anr: Action | Crime | Thriller
Reiser: Ethan Maniquis, Robert Rodriguez
Glavne uloge: Danny Trejo , Robert De Niro and Jessica Alba

Bivi meksicki federalac, unajmljen je da ubije senatora. No kad na zadatku otkrije da mu je namjeteno i da je sve zapravo klopka on jedva preivi. Krece u osvetu. Uz malenu pomoc svog prijatelja Cheec Marina koji je postao svecenik i zakleo se na miroljubivost. Ukoliko ne elite stradati svakako cete se kloniti te dvojice momaka!



Code:
http://fileuplo.de/g9drk4v990uj.html
http://fileuplo.de/dftyge2wd70p.html
http://fileuplo.de/jwyzck1xflnz.html
http://fileuplo.de/u9zpkgciy37r.html
  • *
  • zahvalnica: 4

  • Date Registerd:22 August 2012, 21:55:27
  • Posts: 201
  • Topics: 54
  • Activity/Aktivnost
    0%
  • OS:
    Windows XP Windows XP
  • Browser:
    SeaMonkey 2.11 SeaMonkey 2.11
  • Email
Logged
« Reply #16 on: 25 August 2012, 11:22:15 »

The Expendables (2010) DvDrip-aXXo + Uskladjen Prevod



Code:
http://www.imdb.com/title/tt1320253/

Quote
anr: Action, Adventure, Thriller
Reiser: Sylvester Stallone
Glavne uloge: Sylvester Stallone , Jason Statham and Jet Li

Jedini ivot za koji znaju je rat. Odani su jedino jedni drugima.

Barni Ros (Silvester Stalone) je covek koji nema ta da izgubi. On je neustraivi voda, glas razuma i strateg jako povezane grupe ljudi s margine. Uz njegov kamionet i avion, ovaj tim odanih, modernih ratnika predstavlja najvaniju stvar u Barnijevom ivotu. Barnijev tim cine Li Boic (Dejson Stetam), bivi clan Specijalnih vazdunih snaga i specijalista za hladno oruje; Jin Jang (Det Li), strucnjak za blisku borbu; Ave Cezare (Teri Kruz), strucnjak za vatreno oruje; Putarina (Rendi Kutur), vetak za ruenje i intelektualac u grupi; Gunar Jensen (Dolf Lundgren), snajperista veteran koji se bori sa sopstvenim demonima.
Kada misteriozni Crkvenjak (Brus Vilis) ponudi Barniju posao koji niko drugi ne bi preuzeo, Barni i njegov tim uputaju se u misiju koja deluje rutinski. Potrebno je zbaciti generala Gazu (Dejvid Zajs), zlocinackog diktatora malene ostrvske drave Vilene, i okoncati dugogodinje nasilje koje su trpeli gradani te dravice. Tokom istraivackog putovanja u Vilenu, Barni i Boic uspostavljaju kontakt sa Sandrom, devojkom iz pokreta otpora, koja ima mracnu tajnu. Saznaju i ko su im glavni protivnici: preispoljni kriminalac, bivi agent CIA - Dejms Monro (Erik Roberts), i njegov potrcko Pejn (Stiv Ostin). Kada stvari krenu naopako, Barni i Boic moraju da ostave Sandru i tako je, prakticno, osude na smrt. Progonjen tim neuspehom, Barni nagovara tim da se vrati s njim u Vilenu kako bi pokuao da spase taoca, ali i svoju duu.



Code:
http://fileuplo.de/4rujs4h4txsk.html
http://fileuplo.de/9n1a20re3iv4.html
http://fileuplo.de/6udixg1unmjg.html
http://fileuplo.de/fhs62py0fu4m.html
  • *
  • zahvalnica: 4

  • Date Registerd:22 August 2012, 21:55:27
  • Posts: 201
  • Topics: 54
  • Activity/Aktivnost
    0%
  • OS:
    Windows XP Windows XP
  • Browser:
    SeaMonkey 2.11 SeaMonkey 2.11
  • Email
Logged
« Reply #17 on: 25 August 2012, 11:24:50 »

The White Buffalo (1977) DvDRip + Uskladjen Prevod



Title: The White Buffalo
Year: 1977
Genre: Western
Rating: 5.8 (1,406 Votes)
Runtime: 97 min
Director: J. Lee Thompson
Writer(s): Richard Sale, Richard Sale
Cast: Charles Bronson, Jack Warden, Will Sampson
Plot:
Code:
In this strange western version of JAWS, Wild Bill Hickok hunts a white buffalo he has seen in a dream...
IMDb URL:
Code:
http://www.imdb.com/title/tt0076915/



Code:
http://fileuplo.de/i3xassfy4bf6.html
http://fileuplo.de/0k9vqvskrf16.html
http://fileuplo.de/ih9iylkex5ai.html
http://fileuplo.de/x419b1fkix82.html
  • *
  • zahvalnica: 4

  • Date Registerd:22 August 2012, 21:55:27
  • Posts: 201
  • Topics: 54
  • Activity/Aktivnost
    0%
  • OS:
    Windows XP Windows XP
  • Browser:
    SeaMonkey 2.11 SeaMonkey 2.11
  • Email
Logged
« Reply #18 on: 25 August 2012, 22:42:13 »

Resurrecting the Champ (2007) DvDRip-aXXo + Uskladjen Prevod



Title: Resurrecting the Champ
Year: 2007
Genre: Drama, Sport
Rating: 6.8 (11,967 Votes)
Runtime: 112 min
Director: Rod Lurie
Writer(s): Michael Bortman, Allison Burnett
Cast: Samuel L. Jackson, Josh Hartnett, Kathryn Morris
Plot:
Code:
Up-and-coming sports reporter rescues a homeless man ("Champ") only to discover that he is, in fact, a boxing legend believed to have passed away. What begins as an opportunity to resurrect Champ's story and escape the shadow of his father's success becomes a personal journey as the ambitious reporter reexamines his own life and his relationship with his family.
IMDb URL:
Code:
http://www.imdb.com/title/tt0416185/



FileUplo.de
Code:
http://fileuplo.de/p1norw4mltam.html
http://fileuplo.de/9jmfjgi00sad.html
http://fileuplo.de/y8e7ijui4wh0.html
http://fileuplo.de/zlfdlrosgqnd.html

MuchShare.net
Code:
http://muchshare.net/5d7376artc47
http://muchshare.net/omyrev6y7b61
http://muchshare.net/hkeu0xl74smr
http://muchshare.net/o3vze5f89yf1
  • *
  • zahvalnica: 4

  • Date Registerd:22 August 2012, 21:55:27
  • Posts: 201
  • Topics: 54
  • Activity/Aktivnost
    0%
  • OS:
    Windows XP Windows XP
  • Browser:
    SeaMonkey 2.11 SeaMonkey 2.11
  • Email
Logged
« Reply #19 on: 26 August 2012, 11:44:08 »

Freelancers (2012) DVDRip.XviD-4PlayHD (Sa uskladjenim prevodom)



Code:
http://www.imdb.com/title/tt1815708/

Quote
Video
ID                                       : 0
Format                                   : MPEG-4 Visual
Format profile                           : Advanced [email protected]
Format settings, BVOP                    : 2
Format settings, QPel                    : No
Format settings, GMC                     : No warppoints
Format settings, Matrix                  : Default (H.263)
Muxing mode                              : Packed bitstream
Codec ID                                 : XVID
Codec ID/Hint                            : XviD
Duration                                 : 1h 36mn
Bit rate                                 : 879 Kbps
Width                                    : 656 pixels
Height                                   : 272 pixels
Display aspect ratio                     : 2.40:1
Frame rate                               : 23.976 fps
Color space                              : YUV
Chroma subsampling                       : 4:2:0
Bit depth                                : 8 bits
Scan type                                : Progressive
Compression mode                         : Lossy
Bits/(Pixel*Frame)                       : 0.205
Stream size                              : 607 MiB (87%)
Writing library                          : XviD 1.2.1 (UTC 2008-12-04)

Audio
ID                                       : 1
Format                                   : MPEG Audio
Format version                           : Version 1
Format profile                           : Layer 3
Mode                                     : Joint stereo
Mode extension                           : MS Stereo
Codec ID                                 : 55
Codec ID/Hint                            : MP3
Duration                                 : 1h 36mn
Bit rate mode                            : Variable
Bit rate                                 : 128 Kbps
Channel(s)                               : 2 channels
Sampling rate                            : 48.0 KHz
Compression mode                         : Lossy
Stream size                              : 84.4 MiB (12%)
Alignment                                : Aligned on interleaves
Interleave, duration                     : 24 ms (0.58 video frame)
Interleave, preload duration             : 150 ms
Writing library                          : LAME3.98r
Encoding settings                        : -m j -V 4 -q 2 -lowpass 17 --abr 128



Code:
http://muchshare.net/j2o5tu1og90j
http://muchshare.net/uxf53rxjg9kg
http://muchshare.net/zbsak3n30n5w
http://muchshare.net/m1vgy90acdck
  • amicica
  • Guest
  • Email
Logged
« Reply #20 on: 26 August 2012, 12:33:51 »

The Borrowers (2011) HDTV.XviD-TLA (Sa uskladjenim prevodom)



Code:
http://www.imdb.com/title/tt1975269/

Quote
Video
ID                                       : 0
Format                                   : MPEG-4 Visual
Format profile                           : Advanced [email protected]
Format settings, BVOP                    : 2
Format settings, QPel                    : No
Format settings, GMC                     : No warppoints
Format settings, Matrix                  : Default (H.263)
Codec ID                                 : XVID
Codec ID/Hint                            : XviD
Duration                                 : 1h 27mn
Bit rate                                 : 983 Kbps
Width                                    : 624 pixels
Height                                   : 352 pixels
Display aspect ratio                     : 16:9
Frame rate                               : 25.000 fps
Color space                              : YUV
Chroma subsampling                       : 4:2:0
Bit depth                                : 8 bits
Scan type                                : Progressive
Compression mode                         : Lossy
Bits/(Pixel*Frame)                       : 0.179
Stream size                              : 613 MiB (88%)
Writing library                          : XviD 1.2.1 (UTC 2008-12-04)

Audio
ID                                       : 1
Format                                   : MPEG Audio
Format version                           : Version 1
Format profile                           : Layer 3
Mode                                     : Joint stereo
Codec ID                                 : 55
Codec ID/Hint                            : MP3
Duration                                 : 1h 27mn
Bit rate mode                            : Variable
Bit rate                                 : 128 Kbps
Channel(s)                               : 2 channels
Sampling rate                            : 48.0 KHz
Compression mode                         : Lossy
Stream size                              : 78.9 MiB (11%)
Alignment                                : Aligned on interleaves
Interleave, duration                     : 24 ms (0.60 video frame)
Interleave, preload duration             : 539 ms
Writing library                          : LAME3.99r
Encoding settings                        : -m j -V 4 -q 2 -lowpass 17 --abr 128



Code:
http://muchshare.net/9tkybo3zz39y
http://muchshare.net/z6545ss0eh8c
http://muchshare.net/ycdbhr6vtb61
http://muchshare.net/1rx3637jbpzi
  • amicica
  • Guest
  • Email
Logged
« Reply #21 on: 26 August 2012, 15:32:32 »

Inseparable (2011) DvDRip + Uskladjen Prevod



Code:
http://www.imdb.com/title/tt1032763/

Quote
anr: Comedy | Drama | Thriller
Reiser: Dayyan Eng
Glavne uloge: Kevin Spacey, Daniel Wu and Beibi Gong

Kineska komična crnohumorna triler drama reditelja i scenariste Dayyana Enga o neobičnom prijateljstvu između mladića sa problemima i njegovog komije koji mu pomae reiti te probleme, a usput se njih dvojica oblače i u superjunake. Zanimljivo, glavnu ulogu u ovom filmu igra popularni američki glumac Kevin Spacey, a drutvo mu prave Daniel Wu i Beibi Gong. Inseparable je inače prvi kineski film u kojem glavnu ulogu igra američki glumac.



FileUplo.de
Code:
http://fileuplo.de/dzyd8vmmbnh3.html
http://fileuplo.de/e0vzhre0jfgn.html
http://fileuplo.de/umnphz61s7uu.html
http://fileuplo.de/v25lgmaz5x38.html

MuchShare.net
Code:
http://muchshare.net/ijhxwbp69xnh
http://muchshare.net/w6jomzllye94
http://muchshare.net/c65zida583hl
http://muchshare.net/hyjsdx0dpwse
  • *
  • zahvalnica: 4

  • Date Registerd:22 August 2012, 21:55:27
  • Posts: 201
  • Topics: 54
  • Activity/Aktivnost
    0%
  • OS:
    Windows XP Windows XP
  • Browser:
    SeaMonkey 2.11 SeaMonkey 2.11
  • Email
Logged
« Reply #22 on: 26 August 2012, 20:10:49 »

Inseparable (2011) HDRip.XviD-4PlayHD (Sa uskladjenim prevodom)



Quote
Video
ID                                       : 0
Format                                   : MPEG-4 Visual
Format profile                           : Advanced [email protected]
Format settings, BVOP                    : 2
Format settings, QPel                    : No
Format settings, GMC                     : No warppoints
Format settings, Matrix                  : Default (H.263)
Muxing mode                              : Packed bitstream
Codec ID                                 : XVID
Codec ID/Hint                            : XviD
Duration                                 : 1h 37mn
Bit rate                                 : 868 Kbps
Width                                    : 640 pixels
Height                                   : 272 pixels
Display aspect ratio                     : 2.35:1
Frame rate                               : 25.000 fps
Color space                              : YUV
Chroma subsampling                       : 4:2:0
Bit depth                                : 8 bits
Scan type                                : Progressive
Compression mode                         : Lossy
Bits/(Pixel*Frame)                       : 0.199
Stream size                              : 602 MiB (86%)
Writing library                          : XviD 1.2.1 (UTC 2008-12-04)

Audio
ID                                       : 1
Format                                   : AC-3
Format/Info                              : Audio Coding 3
Mode extension                           : CM (complete main)
Codec ID                                 : 2000
Duration                                 : 1h 37mn
Bit rate mode                            : Constant
Bit rate                                 : 128 Kbps
Channel(s)                               : 2 channels
Channel positions                        : Front: L R
Sampling rate                            : 44.1 KHz
Bit depth                                : 16 bits
Compression mode                         : Lossy
Stream size                              : 88.8 MiB (13%)
Alignment                                : Split accross interleaves
Interleave, duration                     : 40 ms (1.00 video frame)
Interleave, preload duration             : 500 ms



Code:
http://muchshare.net/zp8l7wtthzxi
http://muchshare.net/8yu6iwdeogqq
http://muchshare.net/eqzmspfx4tat
http://muchshare.net/82u50sqq49ea

Code:
http://fileuplo.de/j6v8xnq25m4h.html
http://fileuplo.de/quimbgvww3az.html
http://fileuplo.de/jbo7i9u2dbtx.html
http://fileuplo.de/hudy4wbcryyr.html
  • amicica
  • Guest
  • Email
Logged
« Reply #23 on: 27 August 2012, 09:33:22 »

Elvira: Mistress of the Dark (1988) DvDRip + Uskladjen Prevod



Title: Elvira: Mistress of the Dark
Year: 1988
Genre: Comedy, Horror
Rating: 5.7 (5,138 Votes)
Runtime: 96 min
Director: James Signorelli
Writer(s): Sam Egan, John Paragon
Cast: Cassandra Peterson, Phil Rubenstein, Larry Flash Jenkins
Plot:
Code:
When her Great Aunt dies, famed horror hostess Elvira heads for the uptight New England town of Falwell to claim her inheritance of a haunted house...
IMDb URL:
Code:
http://www.imdb.com/title/tt0095088/



FileUplo.de
Code:
http://fileuplo.de/1y26vzplmrkc.html
http://fileuplo.de/0ran14d3qmxn.html
http://fileuplo.de/r0bczi9cvnq7.html
http://fileuplo.de/yb3sgc3thwi6.html

MuchShare.net
Code:
http://muchshare.net/6n3kbqgjpvgi
http://muchshare.net/wt5m1scyz3i6
http://muchshare.net/ndy66g26fnfm
http://muchshare.net/eoqt2na302ky










Evan Almighty (2007) DvDRip + Uskladjen Prevod



Title: Evan Almighty
Year: 2007
Genre: Comedy, Family, Fantasy
Rating: 5.4 (68,483 Votes)
Runtime: 96 min
Director: Tom Shadyac
Writer(s): Steve Oedekerk, Steve Oedekerk
Cast: Steve Carell, Morgan Freeman, Lauren Graham
Plot:
Code:
God contacts Congressman Evan Baxter and tells him to build an ark in preparation for a great flood.
IMDb URL:
Code:
http://www.imdb.com/title/tt0413099/



FileUplo.de
Code:
http://fileuplo.de/chlbwztqjipt.html
http://fileuplo.de/h7oe1d45nk11.html
http://fileuplo.de/jmr10vukx8w0.html
http://fileuplo.de/2slvvq3a6pmi.html

MuchShare.net
Code:
http://muchshare.net/5iiidrgxb193
http://muchshare.net/ml7xnkd1twos
http://muchshare.net/0b6xrfcw1bm0
http://muchshare.net/ba8xgyqdr9tn








The Tiger and the Snow (2005) DvDRip + Uskladjen Prevod



Title: La tigre e la neve
Year: 2005
Genre: Comedy, Drama, Romance, War
Rating: 6.9 (7,269 Votes)
Runtime: 114 min
Director: Roberto Benigni
Writer(s): Roberto Benigni, Vincenzo Cerami
Cast: Roberto Benigni, Jean Reno, Nicoletta Braschi
Plot:
Code:
A love-struck Italian poet is stuck in Iraq at the onset of an American invasion.
IMDb URL:
Code:
http://www.imdb.com/title/tt0419198/



FileUplo.de
Code:
http://fileuplo.de/yhhodgmw6a0e.html
http://fileuplo.de/q1v13bq2o0v1.html
http://fileuplo.de/bmn0vytvhrfd.html
http://fileuplo.de/qo2zk7vvrsh9.html

MuchShare.net
Code:
http://muchshare.net/2kdwr8lk6cgw
http://muchshare.net/gs7femjp97k5
http://muchshare.net/doi2h5a6usmx
http://muchshare.net/ujfe99646a69










Amusement (2008) DvDRip + Uskladjen Prevod



Title: Amusement
Year: 2008
Genre: Horror, Thriller
Rating: 5.1 (5,691 Votes)
Runtime: 85 min
Director: John Simpson
Writer(s): Jake Wade Wall
Cast: Katheryn Winnick, Laura Breckenridge, Jessica Lucas
Plot:
Code:
Three women are stalked by a killer with a grudge that extends back to the girls' childhoods.
IMDb URL:
Code:
http://www.imdb.com/title/tt0476958/




MuchShare.net
Code:
http://muchshare.net/ty2use21ancy
http://muchshare.net/n6n496eex8vq
http://muchshare.net/k327mq7yhidm
http://muchshare.net/lvl41mrzbn5y









The Expendables 2 (2012) TS XviD + Uskladjen Prevod



Code:
http://www.imdb.com/title/tt1764651/

Quote
anr: Action | Adventure
Reiser: Simon West
Glavne uloge: Sylvester Stallone, Liam Hemsworth and Randy Couture

Nastavak velikog hita, sa gomilom blockbusterskih hollywoodskih akcionih junaka potpomognutih Novakom Đokovićem u glavnoj ulozi.Mr. Church se ponovno udruuje sa starom ekipom Plaćenika (The Expendables). Jedan njihov čovek je ubijen, pa nai junaci kreću u nezaustavljivu osvetu...Razaranje, haos, pet tona plutonijuma u rukama terorista vie je nego dovoljno za menjanje ravnotee moći u svetu. Ali, to nije nita u u poređenju sa pravdom koju trae protiv zlog protivnika koji je divljački ubio njihovog brata.



FileUplo.de
Code:
http://fileuplo.de/9i0sw5rf3fei.html
http://fileuplo.de/m87amv90zy9u.html
http://fileuplo.de/ay245yifwb0b.html

MuchShare.net
Code:
http://muchshare.net/x71du3koudon
http://muchshare.net/ct5z1z5o38rc
http://muchshare.net/0kyfebbfflbo









The Dark Knight Rises (2012) TS XviD + Uskladjen Prevod



Code:
http://www.imdb.com/title/tt1345836/

Quote
anr: Action | Adventure | Crime
Reiser: Christopher Nolan
Glavne uloge: Christian Bale, Michael Caine, Gary Oldman

Bruce Wayne je stariji, nakon osam godina izbivanja ni njegova fizička sprema nije onakva na kakvu smo navikli a negativac nikada nije bio brutalniji. No, ipak Batman (Christian Bale) izlazi iz svoje jazbine i bori se za svoj grad jer zločinci su ovoga puta otriji no ikada Bane (Tom Hardy) i Catwoman (Anne Hathaway) poigrat će se s njegovim umom i iskuati sve njegove granice.



FileUplo.de
Code:
http://fileuplo.de/uimxkd2xo59e.html
http://fileuplo.de/p50izb6o6kxj.html
http://fileuplo.de/rchbbl75lrgv.html
http://fileuplo.de/j1v3wx072vqw.html

MuchShare.net
Code:
http://muchshare.net/l4f1a3o84p8p
http://muchshare.net/e9fc9zi6om9f
http://muchshare.net/td2lpr5miwhe
http://muchshare.net/iuuudf2ow431
  • *
  • zahvalnica: 4

  • Date Registerd:22 August 2012, 21:55:27
  • Posts: 201
  • Topics: 54
  • Activity/Aktivnost
    0%
  • OS:
    Windows XP Windows XP
  • Browser:
    SeaMonkey 2.11 SeaMonkey 2.11
  • Email
Logged
« Reply #24 on: 27 August 2012, 12:03:15 »

The Expendables 2 (2012) TS READNFO XViD AC3 - TODE (Sa uskladjenim prevodom)



Code:
http://www.imdb.com/title/tt1764651/

Quote
Video
ID                                       : 0
Format                                   : MPEG-4 Visual
Format profile                           : [email protected]
Format settings, BVOP                    : No
Format settings, QPel                    : No
Format settings, GMC                     : No warppoints
Format settings, Matrix                  : Default (H.263)
Codec ID                                 : XVID
Codec ID/Hint                            : XviD
Duration                                 : 1h 30mn
Bit rate                                 : 1 000 Kbps
Width                                    : 640 pixels
Height                                   : 240 pixels
Display aspect ratio                     : 2.647
Frame rate                               : 29.970 fps
Color space                              : YUV
Chroma subsampling                       : 4:2:0
Bit depth                                : 8 bits
Scan type                                : Progressive
Compression mode                         : Lossy
Bits/(Pixel*Frame)                       : 0.217
Stream size                              : 648 MiB (93%)
Writing library                          : XviD 64

Audio
ID                                       : 1
Format                                   : AC-3
Format/Info                              : Audio Coding 3
Mode extension                           : CM (complete main)
Codec ID                                 : 2000
Duration                                 : 1h 30mn
Bit rate mode                            : Constant
Bit rate                                 : 64.0 Kbps
Channel(s)                               : 2 channels
Channel positions                        : Front: L R
Sampling rate                            : 48.0 KHz
Bit depth                                : 16 bits
Compression mode                         : Lossy
Stream size                              : 41.4 MiB (6%)
Alignment                                : Aligned on interleaves
Interleave, duration                     : 32 ms (0.96 video frame)



Code:
http://fileuplo.de/u6juhbo6r3ce.html

Code:
http://muchshare.net/xyjzeqk55plj
  • amicica
  • Guest
  • Email
Logged
« Reply #25 on: 27 August 2012, 12:31:57 »

A Better Life (2011) LIMITED DVDRip XviD-TWiZTED (Sa uskladjenim prevodom)



Code:
http://www.imdb.com/title/tt1554091/

Quote
Video
ID                                       : 0
Format                                   : MPEG-4 Visual
Format profile                           : Advanced [email protected]
Format settings, BVOP                    : 2
Format settings, QPel                    : No
Format settings, GMC                     : No warppoints
Format settings, Matrix                  : Default (MPEG)
Codec ID                                 : XVID
Codec ID/Hint                            : XviD
Duration                                 : 1h 37mn
Bit rate                                 : 863 Kbps
Width                                    : 624 pixels
Height                                   : 352 pixels
Display aspect ratio                     : 16:9
Frame rate                               : 23.976 fps
Color space                              : YUV
Chroma subsampling                       : 4:2:0
Bit depth                                : 8 bits
Scan type                                : Progressive
Compression mode                         : Lossy
Bits/(Pixel*Frame)                       : 0.164
Stream size                              : 602 MiB (86%)
Writing library                          : XviD 1.2.1 (UTC 2008-12-04)

Audio
ID                                       : 1
Format                                   : MPEG Audio
Format version                           : Version 1
Format profile                           : Layer 3
Mode                                     : Joint stereo
Mode extension                           : MS Stereo
Codec ID                                 : 55
Codec ID/Hint                            : MP3
Duration                                 : 1h 37mn
Bit rate mode                            : Variable
Bit rate                                 : 128 Kbps
Channel(s)                               : 2 channels
Sampling rate                            : 48.0 KHz
Compression mode                         : Lossy
Stream size                              : 89.6 MiB (13%)
Alignment                                : Aligned on interleaves
Interleave, duration                     : 24 ms (0.58 video frame)
Interleave, preload duration             : 143 ms
Writing library                          : LAME3.90.
Encoding settings                        : -m j -V 4 -q 2 -lowpass 17.6 --abr 128



Code:
http://muchshare.net/ld42ahee0o91
http://muchshare.net/zyixbgtczu6c
http://muchshare.net/yu4eyvdjh70z
http://muchshare.net/m3qxx92ohv4m

Code:
http://fileuplo.de/ud1spdf1kbbn.html
http://fileuplo.de/hmxiw4j2jxn4.html
http://fileuplo.de/ix054zddm1o9.html
http://fileuplo.de/clbsvfa3rdj4.html
  • amicica
  • Guest
  • Email
Logged
« Reply #26 on: 27 August 2012, 14:36:41 »

Mission: Impossible (1996) DvDRip XviD + Uskladjen Prevod



Code:
http://www.imdb.com/title/tt0117060/

Quote
anr: Action | Adventure | Thriller
Reiser: Brian De Palma
Glavne uloge: Tom Cruise, Jon Voight , Emmanuelle Bart

Tom Cruise je Ethan Hunt, tajni agent, tačnije stručnjak za undercover operacije u IMF tajnoj organizaciji.
Jedna naoko rutinska misija zavrava totalnim fijaskom. Osim neizvrenog zadatka ceo je tim nestao.
U seditu IMF-a sumnjaju na krticu u svojim redovima i to upravo na Hunta koji mora dokazati svoju
nevinost i otkriti pravog dounika.



FileUplo.de
Code:
http://fileuplo.de/sh5e9om1ft9k.html
http://fileuplo.de/bsg7g3te7hx9.html
http://fileuplo.de/aun6ms7ni0ro.html
http://fileuplo.de/vx77iurneptq.html

MuchShare.net
Code:
http://muchshare.net/j68veyetunj9
http://muchshare.net/g7sy67caa06k
http://muchshare.net/r90xdo5han1h
http://muchshare.net/dwmh41i52d98









Mission: Impossible II (2000) DvDRip XviD + Uskladjen Prevod



Code:
http://www.imdb.com/title/tt0120755/

Quote
anr: Action | Adventure | Thriller
Reiser: John Woo
Glavne uloge: Tom Cruise, Dougray Scott, Thandie Newton

Itan Hant se vraća i ovoga se puti bori sa agentom onom Embrouzom (Dagrej Skot), koji je preao na stranu negativaca i krade
primerak smrtonosnog sintetičkog virusa Himera koji bi brzo mogao da izbrie čitavu ljudsku populaciju. Hantovo naređenje je
da pronađe Embrouzovu bivu ljubavnicu Niju Hol (Tendi Njutn) da mu pomogne u potrazi za Embrouzom. Međutim, ono na ta
Hant nije računao je da će se zaljubiti u mladu i lepu kradljivicu koju mora koristiti kao mamac..



FileUplo.de
Code:
http://fileuplo.de/twyuoh946280.html
http://fileuplo.de/0zmmgaivtrjx.html
http://fileuplo.de/1l6ekj13ar2y.html
http://fileuplo.de/ap57b5jhi56c.html
http://fileuplo.de/x7luczgmc3ue.html

MuchShare.net
Code:
http://muchshare.net/idd876cwi8yc
http://muchshare.net/ejpzn0e1708y
http://muchshare.net/hovjtnbrlq6o
http://muchshare.net/1avx3leeii0h
http://muchshare.net/4z117ffuorif









Mission: Impossible III (2006) DvDRip XviD + Uskladjen Prevod



Code:
http://www.imdb.com/title/tt0317919/

Quote
anr: Action | Adventure | Thriller
Reiser: J.J. Abrams
Glavne uloge: Tom Cruise, Michelle Monaghan, Ving Rhames

Sama radnja treće misije ide otprilike ovako: Ethan Hunt vie nije aktivan agent, već samo obučava nove IMF-ove agente, pritajio se
i u međuvremenu oenio s Juliom, koju doista voli te eli da ta veza potraje, a i Juliini osjećaji su jednaki. Iznenada, Hunt dobiva zadatak
da spasi otetu agenticu Lindsey, koju je on sam obučavao. Na alost ne uspijeva u tome, ali uz pomoć svog starog prijatelja Luthera
Strickella hvata krivca odgovornog za njezinu smrt; inteligentnog i tajanstvenog kriminalaca, bezdunog međunarodnog trgovaca
orujem i informacijama - Owena Daviana. Davian uspijeva pobjeći s namjerom da se osveti Huntu preko njegove supruge. Hunt
postaje sve zabrinutiji shvativi da nije sve kako se čini.



FileUplo.de
Code:
http://fileuplo.de/6rkgosrly8l7.html
http://fileuplo.de/0iqtogl7r8nn.html
http://fileuplo.de/u83ni10hivd1.html
http://fileuplo.de/yzla5hqn7kcb.html

MuchShare.net
Code:
http://muchshare.net/ntefpjx73ym9
http://muchshare.net/hkv921k2sluz
http://muchshare.net/8h1emrmdlp36
http://muchshare.net/eirap9nw2cw4









Mission: Impossible - Ghost Protocol (2011) DvDRip XviD + Uskladjen Prevod



Code:
http://www.imdb.com/title/tt1229238/

Quote
anr: Action | Adventure | Thriller
Reiser: Brad Bird
Glavne uloge: Tom Cruise, Jeremy Renner and Paula Patton

Zbog toga to je SNM-ov operativac Itan Hant okrivljen za terorističko bombardovanje Kremlja, predsednik će pokrenuti protokol Duh i poreći bilo kakvu povezanost sa njim i ostatkom agencije. Ostavljen bez sredstava i podrke, Itan će morati da pronađe način da skine ljagu sa imena agencije i spreči ponovni napad. Stvari se dodatno komplikuju kad Itana nateraju da na ovu misiju krene sa timom SNM-ovih kolega begunaca čije lične motive ne zna u potpunosti.



FileUplo.de
Code:
http://fileuplo.de/quj9q7qhnqrz.html
http://fileuplo.de/neb7ey5cbubm.html
http://fileuplo.de/txdybqv2ydhx.html
http://fileuplo.de/0ym2bpytw0xa.html

MuchShare.net
Code:
http://muchshare.net/quzxboa45y49
http://muchshare.net/5jmjlsd6mvmd
http://muchshare.net/glyo13o7iopf
http://muchshare.net/x9nimd19qupx
  • *
  • zahvalnica: 4

  • Date Registerd:22 August 2012, 21:55:27
  • Posts: 201
  • Topics: 54
  • Activity/Aktivnost
    0%
  • OS:
    Windows XP Windows XP
  • Browser:
    SeaMonkey 2.11 SeaMonkey 2.11
  • Email
Logged
« Reply #27 on: 27 August 2012, 16:42:44 »

The Last Detail (1973) iNTERNAL DVDRip XviD-8BaLLRiPS (Sa uskladjenim prevodom)



Code:
http://www.imdb.com/title/tt0070290/

Quote
Video
ID                                       : 0
Format                                   : MPEG-4 Visual
Format profile                           : Advanced [email protected]
Format settings, BVOP                    : 2
Format settings, QPel                    : No
Format settings, GMC                     : No warppoints
Format settings, Matrix                  : Default (H.263)
Codec ID                                 : XVID
Codec ID/Hint                            : XviD
Duration                                 : 1h 44mn
Bit rate                                 : 830 Kbps
Width                                    : 640 pixels
Height                                   : 352 pixels
Display aspect ratio                     : 16:9
Frame rate                               : 23.976 fps
Color space                              : YUV
Chroma subsampling                       : 4:2:0
Bit depth                                : 8 bits
Scan type                                : Progressive
Compression mode                         : Lossy
Bits/(Pixel*Frame)                       : 0.154
Stream size                              : 618 MiB (88%)
Writing library                          : XviD 1.2.1 (UTC 2008-12-04)

Audio
ID                                       : 1
Format                                   : MPEG Audio
Format version                           : Version 1
Format profile                           : Layer 3
Codec ID                                 : 55
Codec ID/Hint                            : MP3
Duration                                 : 1h 44mn
Bit rate mode                            : Variable
Bit rate                                 : 96.6 Kbps
Nominal bit rate                         : 128 Kbps
Channel(s)                               : 1 channel
Sampling rate                            : 48.0 KHz
Compression mode                         : Lossy
Stream size                              : 71.9 MiB (10%)
Alignment                                : Aligned on interleaves
Interleave, duration                     : 24 ms (0.58 video frame)
Interleave, preload duration             : 87 ms
Title                                    : The.Last.Detail.1973.iNTERNAL.DVDRip.XviD-8BaLLRiPS T80 2_0ch 256Kbps DELAY 0ms_new
Writing library                          : LAME3.99r
Encoding settings                        : -m m -V 4 -q 2 -lowpass 20.5 --abr 128



Code:
http://muchshare.net/fjjamdt9wwxx
http://muchshare.net/4gvnvixp7vz6
http://muchshare.net/w7vxy6g3wl01
http://muchshare.net/1wzm7m8o30e2

Code:
http://fileuplo.de/5q503a887upp.html
http://fileuplo.de/j9lvqtsjlo13.html
http://fileuplo.de/vz4dinjoasx6.html
http://fileuplo.de/hpgkvsgdval6.html
  • amicica
  • Guest
  • Email
Logged
« Reply #28 on: 28 August 2012, 10:47:42 »

The Five-Year Engagement (2012) DvDRip XviD + Uskladjen Prevod



Code:
http://www.imdb.com/title/tt1195478/

Quote
anr: Comedy | Romance
Reiser: Nicholas Stoller
Glavne uloge: Jason Segel, Emily Blunt and Chris Pratt

Počevi tamo gde većina romantičnih komedija zavrava, film reditelja Nicholasa Stollera i producenta Judda Apatowa, prikazuje ta se deava kada par verenika (Jason Segel i Emily Blunt) posrće na dugom putu do oltara.



FileUplo.de
Code:
http://fileuplo.de/2isl7o25pnad.html
http://fileuplo.de/1l2fsgi8p703.html
http://fileuplo.de/colxgdtlkn3k.html
http://fileuplo.de/0m79r0unnjen.html

MuchShare.net
Code:
http://muchshare.net/g11dwgbki041
http://muchshare.net/bmszekx8di1t
http://muchshare.net/29v8njbbauut
http://muchshare.net/r07y4rvnio1l
  • *
  • zahvalnica: 4

  • Date Registerd:22 August 2012, 21:55:27
  • Posts: 201
  • Topics: 54
  • Activity/Aktivnost
    0%
  • OS:
    Windows XP Windows XP
  • Browser:
    SeaMonkey 2.11 SeaMonkey 2.11
  • Email
Logged
« Reply #29 on: 28 August 2012, 11:45:11 »

White Wall (2010) DvDRip XviD + Uskladjen Prevod



Title: White Wall
Year: 2010
Genre: Action, Mystery, Sci-Fi, Thriller
Rating: 3.3 (446 Votes)
Runtime: 91 min
Director: James Boss
Writer(s): Vivian Kyinn
Cast: James Boss, Gary Kohn, Michael Teh
Plot:
Code:
Set in a wasteland enclosed by a large white wall, the last survivor from a brutal child internment camp reluctantly takes on one final bounty hunting job to protect the idyllic life he has rebuilt.
IMDb URL:
Code:
http://www.imdb.com/title/tt0969653/



FileUplo.de
Code:
http://fileuplo.de/6g15ux80doo1.html
http://fileuplo.de/yehv49pjg8r1.html
http://fileuplo.de/3cnrm9wbj5us.html
http://fileuplo.de/ygvviovkzr46.html

MuchShare.net
Code:
http://muchshare.net/tdc5jsvyl5l4
http://muchshare.net/675b00q5q8ph
http://muchshare.net/v9ann7py4ibg
http://muchshare.net/4yvxao5f9qk0
  • *
  • zahvalnica: 4

  • Date Registerd:22 August 2012, 21:55:27
  • Posts: 201
  • Topics: 54
  • Activity/Aktivnost
    0%
  • OS:
    Windows XP Windows XP
  • Browser:
    SeaMonkey 2.11 SeaMonkey 2.11
  • Email
Logged
Skoci na stranu:  1 2 3 4 5 6 7 ... 49   Idi na vrh strane
Send this topic    Print
 
Skoci na:  

Powered by SMF 1.1.10 | SMF © 2006-2009, Simple Machines LLC
Page created in 0.49 seconds with 38 queries.

Google visited last this page Today at 00:54:15
Theme created by Logo Off