Hello
  Home Help Login Register DMCA Rules  
23 January 2018, 00:49:53
 

Skoci na stranu:  1 ... 43 44 45 46 47 48 49   Idi na dno strane
Send this topic    Print
Author Topic: Filmovi Sa Uskladjenim Prevodom  (Read 29389 times)
« Reply #705 on: 16 October 2015, 06:02:12 »

Assassin (2014) 720p BluRay x264-YIFY+Prevod



Code:
http://www.imdb.com/title/tt3030354/




Code:
http://uptobox.com/igtocrss94kh
  • *
  • zahvalnica: 6

  • Date Registerd:27 December 2013, 15:40:46
  • Posts: 953
  • Topics: 374
  • Activity/Aktivnost
    0%
  • OS:
    Windows NT 6.3 Windows NT 6.3
  • Browser:
    Chrome 47.0.2526.16 Chrome 47.0.2526.16
  • Email
Logged
« Reply #706 on: 16 October 2015, 12:03:07 »

Top Five (2014) 720p BluRay x264-YIFY+Prevod



Quote





Code:
http://userscloud.com/83kvkjqxie1w
  • *
  • zahvalnica: 6

  • Date Registerd:27 December 2013, 15:40:46
  • Posts: 953
  • Topics: 374
  • Activity/Aktivnost
    0%
  • OS:
    Windows NT 6.3 Windows NT 6.3
  • Browser:
    Chrome 48.0.2535.0 Chrome 48.0.2535.0
  • Email
Logged
« Reply #707 on: 17 October 2015, 06:07:37 »

Stretch (2014) 720p BluRay x264-YIFY+Prevod



Code:
http://www.imdb.com/title/tt2494280/




Code:
http://userscloud.com/3prgxbhb4ewq
  • *
  • zahvalnica: 6

  • Date Registerd:27 December 2013, 15:40:46
  • Posts: 953
  • Topics: 374
  • Activity/Aktivnost
    0%
  • OS:
    Windows NT 6.3 Windows NT 6.3
  • Browser:
    Chrome 48.0.2535.0 Chrome 48.0.2535.0
  • Email
Logged
« Reply #708 on: 17 October 2015, 06:08:41 »

Focus (2015) 1080p BluRay x264-YIFY+Prevod



Code:
http://www.imdb.com/title/tt2381941/




Code:
http://userscloud.com/ynk3x7c10tdp
  • *
  • zahvalnica: 6

  • Date Registerd:27 December 2013, 15:40:46
  • Posts: 953
  • Topics: 374
  • Activity/Aktivnost
    0%
  • OS:
    Windows NT 6.3 Windows NT 6.3
  • Browser:
    Chrome 48.0.2535.0 Chrome 48.0.2535.0
  • Email
Logged
« Reply #709 on: 17 October 2015, 06:10:11 »

Redeemer (2014) BRRip XviD AC3-EVO+Prevod



Code:
http://www.imdb.com/title/tt3379456/



Quote
SOURCE: ROVERS (Scene)                                               

 ViDEO: 1700 kbps XviD               

 RESOLUTiON: 720x400                           

 RUNTiME: 1h29m33sec     

 SUBTiTLES: English when needed (.srt) + Serbian                             

 AUDiO: 448 CBR AC-3       

 LANGUAGE: Spainish & English


Code:
http://uptobox.com/ho8p8tjnybzk
  • *
  • zahvalnica: 6

  • Date Registerd:27 December 2013, 15:40:46
  • Posts: 953
  • Topics: 374
  • Activity/Aktivnost
    0%
  • OS:
    Windows NT 6.3 Windows NT 6.3
  • Browser:
    Chrome 48.0.2535.0 Chrome 48.0.2535.0
  • Email
Logged
« Reply #710 on: 17 October 2015, 06:20:06 »

Everest (2015) HDTS 600MB MkvCage+Prevod



Code:
http://www.imdb.com/title/tt2719848/



Quote
Movie Title: Everest (2015)
Director: Baltasar Kormkur
Stars: Jason Clarke, Ang Phula Sherpa, Thomas M. Wright
Release Date: 18 September 2015 (UK)
Genres: Adventure, Drama, Thriller
Format: MatRoska (Mkv)
File Size: 600MB
Resolution: 720x340
Runtime: 01:49:25
Language: English
Subtitles: Croatian
Encoder: MkvCage (MC) Team
Source: HDTS.AC3.HQ.Hive-CM8


Code:
http://hugefiles.net/d9d1lawbuw3i


Code:
http://24uploading.com/wtct0re0nlam/BERBE-CP.rar.html
  • *
  • zahvalnica: 6

  • Date Registerd:27 December 2013, 15:40:46
  • Posts: 953
  • Topics: 374
  • Activity/Aktivnost
    0%
  • OS:
    Windows NT 6.3 Windows NT 6.3
  • Browser:
    Chrome 48.0.2535.0 Chrome 48.0.2535.0
  • Email
Logged
« Reply #711 on: 17 October 2015, 08:13:43 »

Knock Knock (2015) 720p BluRay x264-YIFY+Prevod



Code:
http://www.imdb.com/title/tt3605418/




Code:
http://hugefiles.net/eqenijg8fb9v


Code:
http://24uploading.com/yyrd61r4j8gk/kuckuc-CP.rar.html
  • *
  • zahvalnica: 6

  • Date Registerd:27 December 2013, 15:40:46
  • Posts: 953
  • Topics: 374
  • Activity/Aktivnost
    0%
  • OS:
    Windows NT 6.3 Windows NT 6.3
  • Browser:
    Chrome 48.0.2535.0 Chrome 48.0.2535.0
  • Email
Logged
« Reply #712 on: 17 October 2015, 13:13:33 »

The Martian (2015) HD TS XVID AC3 HQ Hive-CM8+Prevod



Code:
http://www.imdb.com/title/tt3659388/



Quote
Video
ID : 0
Format : MPEG-4 Visual
Format profile : Advanced [email protected]
Format settings, BVOP : 2
Format settings, QPel : Yes
Format settings, GMC : No warppoints
Format settings, Matrix : Default (H.263)
Muxing mode : Packed bitstream
Codec ID : XVID
Codec ID/Hint : XviD
Duration : 2h 16mn
Bit rate : 1 799 Kbps
Width : 720 pixels
Height : 304 pixels
Display aspect ratio : 2.35:1
Frame rate : 29.970 fps
Color space : YUV
Chroma subsampling : 4:2:0
Bit depth : 8 bits
Scan type : Progressive
Compression mode : Lossy
Bits/(Pixel*Frame) : 0.274
Stream size : 1.71 GiB (87%)
Writing library : XviD 1.2.1 (UTC 2008-12-04)

Audio
ID : 1
Format : AC-3
Format/Info : Audio Coding 3
Mode extension : CM (complete main)
Format settings, Endianness : Big
Codec ID : 2000
Duration : 2h 16mn
Bit rate mode : Constant
Bit rate : 256 Kbps
Channel(s) : 2 channels
Channel positions : Front: L R
Sampling rate : 48.0 KHz
Bit depth : 16 bits
Compression mode : Lossy
Stream size : 249 MiB (12%)
Alignment : Split accross interleaves
Interleave, duration : 33 ms (1.00 video fra


Code:
http://hugefiles.net/z4hr4voxuxxf


Code:
http://24uploading.com/bdjnalw0nzbe/stiive-CP.rar.html
  • *
  • zahvalnica: 6

  • Date Registerd:27 December 2013, 15:40:46
  • Posts: 953
  • Topics: 374
  • Activity/Aktivnost
    0%
  • OS:
    Windows NT 6.3 Windows NT 6.3
  • Browser:
    Chrome 48.0.2535.0 Chrome 48.0.2535.0
  • Email
Logged
« Reply #713 on: 17 October 2015, 20:17:26 »

Maze Runner The Scorch Trials (2015) 720p HDTS 800MB-MkvCage+Prevod



Code:
http://www.imdb.com/title/tt4046784/



Quote
Movie Title: Maze Runner: The Scorch Trials (2015)
Director: Wes Ball
Stars: Dylan O'Brien, Kaya Scodelario, Thomas Brodie-Sangster
Release Date: 10 September 2015 (UK)
Genres: Action, Sci-Fi, Thriller
Format: MatRoska (Mkv)
File Size: 750MB
Resolution: 1280x668
Runtime: 02:03:50
Language: English
Subtitles: Serbian
Encoder: MkvCage (MC) Team
Source: 720p.HDTS.x264.AC3.HQ.Hive-CM8


Code:
http://24uploading.com/5ytuxbtok5on/MRTST-CP.rar.html
  • *
  • zahvalnica: 6

  • Date Registerd:27 December 2013, 15:40:46
  • Posts: 953
  • Topics: 374
  • Activity/Aktivnost
    0%
  • OS:
    Windows NT 6.3 Windows NT 6.3
  • Browser:
    Chrome 48.0.2535.0 Chrome 48.0.2535.0
  • Email
Logged
« Reply #714 on: 18 October 2015, 08:48:35 »

Pressure (2015) 720p BRRip 800MB-MkvCage+Prevod



Code:
http://www.imdb.com/title/tt3029476/



Quote
RELEASE NOTES
Movie Title: Pressure (2015)
Director: Ron Scalpello
Stars: Danny Huston, Matthew Goode, Joe Cole, Alan McKenna
Release Date: 23 Feb 2015
Genres: Thriller
Format: MatRoska (Mkv)
File Size: 800MB
Resolution: 1280x692
Runtime: 01:31:15
Language: English
Subtitles: None
Encoder: MkvCage (MC) Team
Source: 720p.BluRay.x264.DTS-FGT


Code:
http://24uploading.com/2gmcose60zvg/TERUS-CP.rar.html
  • *
  • zahvalnica: 6

  • Date Registerd:27 December 2013, 15:40:46
  • Posts: 953
  • Topics: 374
  • Activity/Aktivnost
    0%
  • OS:
    Windows NT 6.3 Windows NT 6.3
  • Browser:
    Chrome 48.0.2535.0 Chrome 48.0.2535.0
  • Email
Logged
« Reply #715 on: 18 October 2015, 08:49:50 »

Maze Runner The Scorch Trials (2015) HD TS XVID AC3 HQ Hive-CM8+Prevod



Code:
http://www.imdb.com/title/tt4046784/



Quote
Video
ID : 0
Format : MPEG-4 Visual
Format profile : Advanced [email protected]
Format settings, BVOP : 2
Format settings, QPel : Yes
Format settings, GMC : No warppoints
Format settings, Matrix : Default (H.263)
Muxing mode : Packed bitstream
Codec ID : XVID
Codec ID/Hint : XviD
Duration : 2h 3mn
Bit rate : 1 800 Kbps
Width : 720 pixels
Height : 400 pixels
Display aspect ratio : 16:9
Frame rate : 29.970 fps
Color space : YUV
Chroma subsampling : 4:2:0
Bit depth : 8 bits
Scan type : Progressive
Compression mode : Lossy
Bits/(Pixel*Frame) : 0.209
Stream size : 1.56 GiB (87%)
Writing library : XviD 1.2.1 (UTC 2008-12-04)

Audio
ID : 1
Format : AC-3
Format/Info : Audio Coding 3
Mode extension : CM (complete main)
Format settings, Endianness : Big
Codec ID : 2000
Duration : 2h 3mn
Bit rate mode : Constant
Bit rate : 256 Kbps
Channel(s) : 2 channels
Channel positions : Front: L R
Sampling rate : 48.0 KHz
Bit depth : 16 bits
Compression mode : Lossy
Stream size : 227 MiB (12%)
Alignment : Split accross interleaves
Interleave, duration : 33 ms (1.00 video frame)
Interleave, preload duration : 500 ms


Code:
http://24uploading.com/miapuncch6x5/MARZ-CP.rar.html
  • *
  • zahvalnica: 6

  • Date Registerd:27 December 2013, 15:40:46
  • Posts: 953
  • Topics: 374
  • Activity/Aktivnost
    0%
  • OS:
    Windows NT 6.3 Windows NT 6.3
  • Browser:
    Chrome 48.0.2535.0 Chrome 48.0.2535.0
  • Email
Logged
« Reply #716 on: 18 October 2015, 08:50:59 »

Narcopolis (2015) 720p BRRip x264 AAC-ETRG+Prevod



Code:
http://www.imdb.com/title/tt1957938/



Quote
Video:-

Format : MP4 / x264 / [email protected]
Duration : 01:35:45
Bitrate : 1000 Kbps
Resolution = (Width/Height) : 1280x536 pixels
Frame Rate : 23,976 fps

Audio:-

Format : AAC
Bit Rate Mode : Variable
Bitrate : 96 Kbps
Maximum Bit Rate : 147 Kbps
Channels : 2 Channels
Language : English


Code:
http://24uploading.com/qh2og8se99sq/NARKOO-CP.rar.html
  • *
  • zahvalnica: 6

  • Date Registerd:27 December 2013, 15:40:46
  • Posts: 953
  • Topics: 374
  • Activity/Aktivnost
    0%
  • OS:
    Windows NT 6.3 Windows NT 6.3
  • Browser:
    Chrome 48.0.2535.0 Chrome 48.0.2535.0
  • Email
Logged
« Reply #717 on: 18 October 2015, 19:43:51 »

Infini (2015) BRRip XviD MP3-RARBG+Prevod



Code:
http://www.imdb.com/title/tt3327624/



Quote
Video
ID                                       : 0
Format                                   : MPEG-4 Visual
Format profile                           : [email protected]
Format settings, BVOP                    : No
Format settings, QPel                    : No
Format settings, GMC                     : No warppoints
Format settings, Matrix                  : Default (H.263)
Codec ID                                 : XVID
Codec ID/Hint                            : XviD
Duration                                 : 1h 50mn
Bit rate                                 : 711 Kbps
Width                                    : 720 pixels
Height                                   : 270 pixels
Display aspect ratio                     : 2.667
Frame rate                               : 24.000 fps
Color space                              : YUV
Chroma subsampling                       : 4:2:0
Bit depth                                : 8 bits
Scan type                                : Progressive
Compression mode                         : Lossy
Bits/(Pixel*Frame)                       : 0.152
Stream size                              : 563 MiB (78%)
Title                                    : Infini.2015.BRRip.XviD.MP3-RARBG
Writing library                          : Lavc56.60.100

Audio
ID                                       : 1
Format                                   : MPEG Audio
Format version                           : Version 1
Format profile                           : Layer 3
Mode                                     : Joint stereo
Mode extension                           : MS Stereo
Codec ID                                 : 55
Codec ID/Hint                            : MP3
Duration                                 : 1h 50mn
Bit rate mode                            : Constant
Bit rate                                 : 192 Kbps
Channel(s)                               : 2 channels
Sampling rate                            : 48.0 KHz
Compression mode                         : Lossy
Stream size                              : 152 MiB (21%)
Alignment                                : Aligned on interleaves
Interleave, duration                     : 24 ms (0.58 video frame)
Interleave, preload duration             : 24 ms
Title                                    : Infini.2015.BRRip.XviD.MP3-RARBG
Writing library                          : LAME3.99.5


Code:
http://hugefiles.net/lxyay0pl8u0k
  • *
  • zahvalnica: 6

  • Date Registerd:27 December 2013, 15:40:46
  • Posts: 953
  • Topics: 374
  • Activity/Aktivnost
    0%
  • OS:
    Windows NT 6.3 Windows NT 6.3
  • Browser:
    Chrome 48.0.2535.0 Chrome 48.0.2535.0
  • Email
Logged
« Reply #718 on: 20 October 2015, 07:30:47 »

AWOL-72 (2015) DVDRip XviD-EVO+Prevod



Code:
http://www.imdb.com/title/tt2048865/




Code:
http://24uploading.com/tbhonwv661m4/OVAL-CP.rar.html
  • *
  • zahvalnica: 6

  • Date Registerd:27 December 2013, 15:40:46
  • Posts: 953
  • Topics: 374
  • Activity/Aktivnost
    0%
  • OS:
    Windows NT 6.3 Windows NT 6.3
  • Browser:
    Chrome 48.0.2535.0 Chrome 48.0.2535.0
  • Email
Logged
« Reply #719 on: 20 October 2015, 07:33:46 »

Vacation (2015) HC HDRip XViD-ETRG+Prevod



Code:
http://www.imdb.com/title/tt1524930/



Quote
VIDEO :-                                                 
                                                         
  Format          :  Audio Video Interleave               
  Bitrate         :  908  kbps                           
  Codec ID        :  XviD                                 
  Resolution      :  640 X 272                           
  Aspect Ratio    :  2.35:1                               
  Frame Rate      :  25.000 fps                           
  Quality Frame   :  0.209                               
                                                         
 ---------------------------------------------------------
                                                         
 Audio :-                                                 
                                                         
  Codec ID        :   MP3                                 
  Bitrate         :   112 kbps                           
  Channel(s)      :   2                                   
  Sample Rate     :   48.0 KHZ                           
                                                         
                                                         
 ---------------------------------------------------------
                                                         
  Encoder         :   juggs                               
  File Size       :   699MB                               
  Duration        :   01h34m                             
  Source          :   720 Mp4Ba      (Thanks)             
  Release Date    :   18-09-2015                         
  Language        :   English                             
  Subtitles       :   Hardcoded Chinese+Serbian


Code:
http://24uploading.com/lyxyv4vjyxi5/VKAT-CP.rar.html
  • *
  • zahvalnica: 6

  • Date Registerd:27 December 2013, 15:40:46
  • Posts: 953
  • Topics: 374
  • Activity/Aktivnost
    0%
  • OS:
    Windows NT 6.3 Windows NT 6.3
  • Browser:
    Chrome 48.0.2535.0 Chrome 48.0.2535.0
  • Email
Logged
Skoci na stranu:  1 ... 43 44 45 46 47 48 49   Idi na vrh strane
Send this topic    Print
 
Skoci na:  

Powered by SMF 1.1.10 | SMF © 2006-2009, Simple Machines LLC
Page created in 0.639 seconds with 39 queries.

Google visited last this page Today at 00:49:53
Theme created by Logo Off