Hello
  Home Help Login Register DMCA Rules  
22 January 2018, 09:09:50
 

Skoci na stranu: 1    Idi na dno strane
Send this topic    Print
Author Topic: Disaster L A (2014) BRRip  (Read 374 times)
« on: 21 November 2014, 00:03:11 »

************************************************************
Disaster L A (2014) BRRip XViD AC3 H34LTH
File Size: 1.76 GiB

************************************************************



INFO:
Code:
Format                                   : AVI
Format/Info                              : Audio Video Interleave
File size                                : 1.76 GiB
Duration                                 : 1h 22mn
Overall bit rate                         : 3 035 Kbps
Writing application                      : VirtualDubMod 1.5.10.2 (build 2540/release)
Writing library                          : VirtualDubMod build 2540/release

Video
ID                                       : 0
Format                                   : MPEG-4 Visual
Format profile                           : Advanced [email protected]
Format settings, BVOP                    : 2
Format settings, QPel                    : No
Format settings, GMC                     : No warppoints
Format settings, Matrix                  : Default (H.263)
Codec ID                                 : XVID
Codec ID/Hint                            : XviD
Duration                                 : 1h 22mn
Bit rate                                 : 2 578 Kbps
Width                                    : 848 pixels
Height                                   : 352 pixels
Display aspect ratio                     : 2.40:1
Frame rate                               : 23.976 fps
Color space                              : YUV
Chroma subsampling                       : 4:2:0
Bit depth                                : 8 bits
Scan type                                : Progressive
Compression mode                         : Lossy
Bits/(Pixel*Frame)                       : 0.360
Stream size                              : 1.49 GiB (85%)
Writing library                          : XviD 64

Audio
ID                                       : 1
Format                                   : AC-3
Format/Info                              : Audio Coding 3
Mode extension                           : CM (complete main)
Format settings, Endianness              : Big
Codec ID                                 : 2000
Duration                                 : 1h 22mn
Bit rate mode                            : Constant
Bit rate                                 : 448 Kbps
Channel(s)                               : 6 channels
Channel positions                        : Front: L C R, Side: L R, LFE
Sampling rate                            : 48.0 KHz
Bit depth                                : 16 bits
Compression mode                         : Lossy
Stream size                              : 265 MiB (15%)
Alignment                                : Split accross interleaves
Interleave, duration                     : 42 ms (1.00 video frame)
Interleave, preload duration             : 500 ms

PLOT: After a meteor shower strikes Los Angeles, toxic smoke is released across the city causing people to physically change and become violent. A small group of survivors plans to vacate the city by heading to the coast.

iMDB:
Code:
http://www.imdb.com/title/tt3439114/



Single Extraction | No Password | Interchangeable Links: | Working 100% |

Code:
http://rapidgator.net/file/622302b30994e8b763752f5b2ff64892/Disaster.L.A.BRRiP.H34LTH.part1.rar.html
http://rapidgator.net/file/0f9580a43b11cafa55ffcd3e19e780b9/Disaster.L.A.BRRiP.H34LTH.part2.rar.html

http://uploaded.net/file/ad697car/Disaster.L.A.BRRiP.H34LTH.part1.rar
http://uploaded.net/file/jvtb71pf/Disaster.L.A.BRRiP.H34LTH.part2.rar

http://k2s.cc/file/030f5ae5f4b2d/Disaster.L.A.BRRiP.H34LTH.part1.rar
http://k2s.cc/file/f99757a565b3e/Disaster.L.A.BRRiP.H34LTH.part2.rar

DOWNLOAD SINGLE LINKS:
Code:
http://rapidgator.net/file/d5a6348e84d25349b81cf349f0e7cc3a/Disaster.L.A.BRRiP.SingLE.rar.html
http://uploaded.net/file/78opzcoi/Disaster.L.A.BRRiP.SingLE.rar
http://k2s.cc/file/66f058f1e9b08/Disaster.L.A.BRRiP.SingLE.rar




KEEP IN TOUCH FOR LATEST UPLOAD..
Your support encourage me...


DON'T FORGET TO SAY THANKS IF YOU LIKE MY POST !


  • *
  • zahvalnica: 23

  • Location: Ice Rock
  • Date Registerd:02 November 2010, 13:18:29
  • Posts: 2512
  • Topics: 1342
  • Activity/Aktivnost
    0%
  • OS:
    Windows NT 6.3 Windows NT 6.3
  • Browser:
    Chrome 38.0.2125.111 Chrome 38.0.2125.111
  • Email
Logged
Skoci na stranu: 1    Idi na vrh strane
Send this topic    Print
 
Skoci na:  

Powered by SMF 1.1.10 | SMF © 2006-2009, Simple Machines LLC
Page created in 1.498 seconds with 25 queries.

Google visited last this page Today at 09:09:52
Theme created by Logo Off