Hello
  Home Help Login Register DMCA Rules  
22 January 2018, 09:05:08
 

Skoci na stranu: 1    Idi na dno strane
Send this topic    Print
Author Topic: Nightcrawler (2014) TS  (Read 399 times)
« on: 23 November 2014, 18:44:47 »

************************************************************
Nightcrawler (2014) TS XViD AC3 SiMPLE
File Size: 724 MiB

************************************************************



INFO:
Code:
General
Complete name                            : Nightcrawler.2014.TS.XViD.AC3.MrSeeN-SiMPLE.avi
Format                                   : AVI
Format/Info                              : Audio Video Interleave
File size                                : 724 MiB
Duration                                 : 1h 52mn
Overall bit rate                         : 900 Kbps
Writing library                          : VirtualDub build 32842/release

Video
ID                                       : 0
Format                                   : MPEG-4 Visual
Format profile                           : Advanced [email protected]
Format settings, BVOP                    : 2
Format settings, QPel                    : No
Format settings, GMC                     : No warppoints
Format settings, Matrix                  : Default (H.263)
Muxing mode                              : Packed bitstream
Codec ID                                 : XVID
Codec ID/Hint                            : XviD
Duration                                 : 1h 52mn
Bit rate                                 : 761 Kbps
Width                                    : 546 pixels
Height                                   : 304 pixels
Display aspect ratio                     : 16:9
Frame rate                               : 29.970 fps
Color space                              : YUV
Chroma subsampling                       : 4:2:0
Bit depth                                : 8 bits
Scan type                                : Progressive
Compression mode                         : Lossy
Bits/(Pixel*Frame)                       : 0.153
Stream size                              : 612 MiB (85%)
Writing library                          : XviD 64

Audio
ID                                       : 1
Format                                   : AC-3
Format/Info                              : Audio Coding 3
Mode extension                           : CM (complete main)
Format settings, Endianness              : Big
Codec ID                                 : 2000
Duration                                 : 1h 52mn
Bit rate mode                            : Constant
Bit rate                                 : 128 Kbps
Channel(s)                               : 2 channels
Channel positions                        : Front: L R
Sampling rate                            : 44.1 KHz
Bit depth                                : 16 bits
Compression mode                         : Lossy
Stream size                              : 103 MiB (14%)
Alignment                                : Aligned on interleaves
Interleave, duration                     : 35 ms (1.04 video frame)
Interleave, preload duration             : 522 ms

iMDB:
Code:
http://www.imdb.com/title/tt2872718/



Single Extraction | No Password | Interchangeable Links: | Working 100% |

Code:

http://rapidgator.net/file/d342fa7668aec8278f67a78f313db343/sNlZ062.SiMPLE.rar.html
http://uploaded.net/file/nf66w4ya/sNlZ062.SiMPLE.rar
http://www.nitroflare.com/view/5D2EECCFEA99616
http://k2s.cc/file/4960f31f65751/sNlZ062.SiMPLE.rar


:!: PLEASE SEE BEFORE DOWNLOADING

:arrow: Backups Ready. Reply Here When links Dead, I will re-up A.S.A.P
:arrow: Links Are Interchangeable
:arrow: I used to upload on different 4 file host for you
:arrow: No compromise about quality which u get here

DON'T FORGET TO SAY THANKS IF YOU LIKE MY POST !


  • *
  • zahvalnica: 23

  • Location: Ice Rock
  • Date Registerd:02 November 2010, 13:18:29
  • Posts: 2512
  • Topics: 1342
  • Activity/Aktivnost
    0%
  • OS:
    Windows NT 6.3 Windows NT 6.3
  • Browser:
    Chrome 39.0.2171.65 Chrome 39.0.2171.65
  • Email
Logged
Skoci na stranu: 1    Idi na vrh strane
Send this topic    Print
 
Skoci na:  

Powered by SMF 1.1.10 | SMF © 2006-2009, Simple Machines LLC
Page created in 3.115 seconds with 25 queries.

Google visited last this page Today at 09:05:11
Theme created by Logo Off