Hello
  Home Help Login Register DMCA Rules  
22 January 2018, 09:22:06
 

Skoci na stranu: 1    Idi na dno strane
Send this topic    Print
Author Topic: Chappie (2015) CAM  (Read 346 times)
« on: 11 March 2015, 21:03:07 »


Chappie (2015) CAM XViD FANTA
File Size: 1.678 GiB




INFO:
Code:
General
Complete name                            : Chappie.2015.CAM.XViD-FANTA.avi
Format                                   : AVI
Format/Info                              : Audio Video Interleave
Format profile                           : OpenDML
Format settings                          : rec
File size                                : 1.65 GiB
Duration                                 : 1h 53mn
Overall bit rate                         : 2 088 Kbps
Writing application                      : AVI-Mux GUI 1.17.8.3, Feb 16 201019:42:50

Video
ID                                       : 0
Format                                   : MPEG-4 Visual
Format profile                           : Advanced [email protected]
Format settings, BVOP                    : 2
Format settings, QPel                    : No
Format settings, GMC                     : No warppoints
Format settings, Matrix                  : Default (H.263)
Muxing mode                              : Packed bitstream
Codec ID                                 : XVID
Codec ID/Hint                            : XviD
Duration                                 : 1h 53mn
Bit rate                                 : 1 891 Kbps
Width                                    : 680 pixels
Height                                   : 304 pixels
Display aspect ratio                     : 2.25:1
Frame rate                               : 23.976 fps
Color space                              : YUV
Chroma subsampling                       : 4:2:0
Bit depth                                : 8 bits
Scan type                                : Progressive
Compression mode                         : Lossy
Bits/(Pixel*Frame)                       : 0.381
Stream size                              : 1.49 GiB (91%)
Writing library                          : XviD 64

Audio
ID                                       : 1
Format                                   : AC-3
Format/Info                              : Audio Coding 3
Mode extension                           : CM (complete main)
Format settings, Endianness              : Big
Codec ID                                 : 2000
Duration                                 : 1h 53mn
Bit rate mode                            : Constant
Bit rate                                 : 192 Kbps
Channel(s)                               : 2 channels
Channel positions                        : Front: L R
Sampling rate                            : 44.1 KHz
Bit depth                                : 16 bits
Compression mode                         : Lossy
Stream size                              : 155 MiB (9%)
Alignment                                : Aligned on interleaves
Interleave, duration                     : 70 ms (1.67 video frames)
Interleave, preload duration             : 208 ms

iMDB:
Code:
http://www.imdb.com/title/tt1823672/



Single Extraction | No Password | Interchangeable Links: | Working 100% |

Code:
http://rapidgator.net/file/e2a3a40c7445c6ebdfc745f280939124/Chappie.2015.FANTA.part1.rar.html
http://rapidgator.net/file/c6aa8f3b0432248c6ac8ff39811c2c3b/Chappie.2015.FANTA.part2.rar.html
http://rapidgator.net/file/574a70a22c7580b1a6808445d41444e7/Chappie.2015.FANTA.part3.rar.html
http://rapidgator.net/file/ce7e81eadef818345c06f9a70e40448a/Chappie.2015.FANTA.part4.rar.html

http://uploaded.net/file/vwc2d7fy/Chappie.2015.FANTA.part1.rar
http://uploaded.net/file/f63zy82j/Chappie.2015.FANTA.part2.rar
http://uploaded.net/file/yevz4gmk/Chappie.2015.FANTA.part3.rar
http://uploaded.net/file/7s40an6h/Chappie.2015.FANTA.part4.rar

http://k2s.cc/file/3c2218b1fc828/Chappie.2015.FANTA.part1.rar
http://k2s.cc/file/06805673b3d93/Chappie.2015.FANTA.part2.rar
http://k2s.cc/file/99034ad7c1f70/Chappie.2015.FANTA.part3.rar
http://k2s.cc/file/edbba16bf6e18/Chappie.2015.FANTA.part4.rar

http://www.nitroflare.com/view/E3D20F44903E17D
http://www.nitroflare.com/view/D6B2BACB7C59635
http://www.nitroflare.com/view/53C49C535E95336
http://www.nitroflare.com/view/A40AF1617DC3A12

DOWNLOAD SINGLE LINKS:

Code:
http://rapidgator.net/file/54a08ca014a396e05e5c66a4c0a02adc/Chappie.2015.SingLE.rar.html
http://uploaded.net/file/7v4en4jn/Chappie.2015.SingLE.rar
http://k2s.cc/file/6e2d7f703bfd4/Chappie.2015.SingLE.rar
http://www.nitroflare.com/view/FCF974E58BDFCB6



DON'T FORGET TO SAY THANKS IF YOU LIKE MY POST !
  • *
  • zahvalnica: 23

  • Location: Ice Rock
  • Date Registerd:02 November 2010, 13:18:29
  • Posts: 2512
  • Topics: 1342
  • Activity/Aktivnost
    0%
  • OS:
    Windows NT 6.3 Windows NT 6.3
  • Browser:
    Chrome 41.0.2272.76 Chrome 41.0.2272.76
  • Email
Logged
Skoci na stranu: 1    Idi na vrh strane
Send this topic    Print
 
Skoci na:  

Powered by SMF 1.1.10 | SMF © 2006-2009, Simple Machines LLC
Page created in 1.757 seconds with 25 queries.

Google visited last this page Today at 09:22:08
Theme created by Logo Off